1. Сайт переделан с 0. Надеемся вы оцените возросшее удобство при использовании. Если вы регистрировались ранее - повторно регистрироваться не нужно. Почти все ваши данные были перенесены. Если не помните пароль - воспользуйтесь восстановлением. Для тех кто заходил через вк - просто зайдите еще раз. Все раздачи со временем вернутся, пока добавляем новые и возвращаем старые. 

    Скрыть объявление

Двойка / The Deuce / Сезон: 1 / Серии: 1-8 (8) [WEB-DL 720p]

Тема в разделе "Двойка", создана пользователем Devzz, 14 сен 2017.

  1. Devzz

    Devzz Administrator Команда форума

    Сообщения:
    100
    Двойка / The Deuce
    1 сезон

    Год выпуска: 2017
    Страна: США
    Жанр: порнодрама
    Продолжительность: 8 х ~ 46-78 мин
    Озвучание: профессиональное многоголосое закадровое, без цензуры (FocusStudio)
    Субтитры
    : нет

    Режиссёры: Джеймс Франко, Мишель МакЛарен, Ута Бризвитц и другие

    В ролях: Джеймс Франко, Мэгги Джилленхол, Гари Карр, Маргарита Левиева, Лоуренс Гиллиард мл., Доминик Фишбэк, Эмили Мид, Гбенга Акиннагбе, Эммануль Акото, Кристофер Бауэр и другие

    Описание: Проект исследует беспорядочный мир секс-индустрии 1970-80х годов, процветавшей в самом сердце Манхэттена, пока появление СПИДа, распространение наркотиков и обновление рынка недвижимости не положили конец этому безумию.


    Релиз: [​IMG]



    Качество: WEB-DL 720p
    Формат: MKV
    Видео: 1280x720 (16:9), 23.976 fps, MPEG-4 AVC ~4000 kbps
    Аудио Rus: 48 kHz, AC3, 6 ch, 640 kbps
    Аудио Eng: 48 kHz, AC3, 6 ch, 640 kbps

    Код:
    General
    Unique ID                                : 138263600384316630275523070971545831252 (0x680499CF5526101871736DD0657AC754)
    Complete name                            : The.Deuce.S01E01.WEB-DL.720p.FocusStudio.mkv
    Format                                   : Matroska
    Format version                           : Version 4 / Version 2
    File size                                : 3.26 GiB
    Duration                                 : 1h 24mn
    Overall bit rate mode                    : Variable
    Overall bit rate                         : 5 519 Kbps
    Movie name                               : The Deuce 1x01 @ FocusStudio
    Encoded date                             : UTC 2017-09-13 15:53:56
    Writing application                      : mkvmerge v15.0.0 ('Duel with the Devil') 64-bit
    Writing library                          : libebml v1.3.5 + libmatroska v1.4.5
    
    Video
    ID                                       : 1
    Format                                   : AVC
    Format/Info                              : Advanced Video Codec
    Format profile                           : High@L3.1
    Format settings, CABAC                   : Yes
    Format settings, ReFrames                : 5 frames
    Codec ID                                 : V_MPEG4/ISO/AVC
    Duration                                 : 1h 24mn
    Bit rate mode                            : Variable
    Bit rate                                 : 4 129 Kbps
    Maximum bit rate                         : 4 500 Kbps
    Width                                    : 1 280 pixels
    Height                                   : 720 pixels
    Display aspect ratio                     : 16:9
    Frame rate mode                          : Constant
    Frame rate                               : 23.976 fps
    Color space                              : YUV
    Chroma subsampling                       : 4:2:0
    Bit depth                                : 8 bits
    Scan type                                : Progressive
    Bits/(Pixel*Frame)                       : 0.187
    Stream size                              : 2.44 GiB (75%)
    Default                                  : Yes
    Forced                                   : No
    Color primaries                          : BT.709
    Transfer characteristics                 : BT.709
    Matrix coefficients                      : BT.709
    
    Audio #1
    ID                                       : 2
    Format                                   : AC-3
    Format/Info                              : Audio Coding 3
    Mode extension                           : CM (complete main)
    Format settings, Endianness              : Big
    Codec ID                                 : A_AC3
    Duration                                 : 1h 24mn
    Bit rate mode                            : Constant
    Bit rate                                 : 640 Kbps
    Channel(s)                               : 6 channels
    Channel positions                        : Front: L C R, Side: L R, LFE
    Sampling rate                            : 48.0 KHz
    Bit depth                                : 16 bits
    Compression mode                         : Lossy
    Stream size                              : 388 MiB (12%)
    Title                                    : MVO FocusStudio
    Language                                 : Russian
    Default                                  : Yes
    Forced                                   : No
    
    Audio #2
    ID                                       : 3
    Format                                   : AC-3
    Format/Info                              : Audio Coding 3
    Mode extension                           : CM (complete main)
    Format settings, Endianness              : Big
    Codec ID                                 : A_AC3
    Duration                                 : 1h 24mn
    Bit rate mode                            : Constant
    Bit rate                                 : 640 Kbps
    Channel(s)                               : 6 channels
    Channel positions                        : Front: L C R, Side: L R, LFE
    Sampling rate                            : 48.0 KHz
    Bit depth                                : 16 bits
    Compression mode                         : Lossy
    Stream size                              : 388 MiB (12%)
    Language                                 : English
    Default                                  : No
    Forced                                   : No
    
    
     
    • СКАЧАТЬ MAGNET
      (97,3 КБ, 12 Просмотров, Размер: 19,3 ГБ, Сидеры: 1, Личеры: 0, Скачали: 1) Золото
    • Загрузка...
    Последнее редактирование модератором: 12 фев 2018
    Akira нравится это.
  2. Akira
    Akira
    А когда будут оставшиеся 2 серии?
    25 дек 2017