1. Сайт переделан с 0. Надеемся вы оцените возросшее удобство при использовании. Если вы регистрировались ранее - повторно регистрироваться не нужно. Почти все ваши данные были перенесены. Если не помните пароль - воспользуйтесь восстановлением. Для тех кто заходил через вк - просто зайдите еще раз. Все раздачи со временем вернутся, пока добавляем новые и возвращаем старые. 

    Скрыть объявление

Порох / Gunpowder / Сезон: 1 / Серии: 1-3 (3) [WEB-DL 720p]

Тема в разделе "Порох", создана пользователем Devzz, 5 ноя 2017.

  1. Devzz

    Devzz Administrator Команда форума

    Сообщения:
    78
    Порох / Gunpowder
    1 сезон 1-3 серии


    Год выпуска: 2017
    Страна: Великобритания
    Жанр: драма, история
    Продолжительность: 3 х ~ 60 мин
    Озвучание: профессиональное многоголосое закадровое (FocusStudio)
    Субтитры
    : нет

    Режиссеры: Дж. Блэйксон

    В ролях: Кит Харингтон, Шон Дули, Марк Гейтисс, Лив Тайлер, Питер Муллан, Дерек Ридделл, Эдвард Холкрофт, Роберт Эммс, Том Каллен, Педро Касабланк и др.

    Описание: Сериал посвящен Пороховому заговору 1605 года — попытке группы английских католиков убить короля Якова I, симпатизировавшего протестантам.



    Релиз: [​IMG]



    Качество: WEB-DL 1080p [Amazon]
    Формат: MKV
    Видео: 1280x528, 23.976 fps, x264 ~1500kbps avg, 0.100 bit/pixel
    Аудио Rus: 48 kHz, AC3, 6 ch, 640 kbps
    Аудио Eng: 48 kHz, AC3, 6 ch, 640 kbps

    Код:
    Format                      : Matroska
    Format version              : Version 4 / Version 2
    File size                   : 1.14 GiB
    Duration                    : 58 min
    Overall bit rate mode       : Variable
    Overall bit rate            : 2 786 kb/s
    Movie name                  : Gunpowder 1x01 @ FocusStudio
    Encoded date                : UTC 2017-11-05 10:52:13
    Writing application         : mkvmerge v8.1.0 ('Psychedelic Postcard') 64bit
    Writing library             : libebml v1.3.1 + libmatroska v1.4.2
    
    Video
    ID                          : 1
    Format                      : AVC
    Format/Info                 : Advanced Video Codec
    Format profile              : High@L3.1
    Format settings, CABAC      : Yes
    Format settings, ReFrames   : 5 frames
    Codec ID                    : V_MPEG4/ISO/AVC
    Duration                    : 58 min
    Bit rate mode               : Variable
    Bit rate                    : 1 451 kb/s
    Maximum bit rate            : 4 500 kb/s
    Width                       : 1 280 pixels
    Height                      : 528 pixels
    Display aspect ratio        : 2.40:1
    Original display aspect rat : 2.40:1
    Frame rate mode             : Constant
    Frame rate                  : 25.000 FPS
    Color space                 : YUV
    Chroma subsampling          : 4:2:0
    Bit depth                   : 8 bits
    Scan type                   : Progressive
    Bits/(Pixel*Frame)          : 0.086
    Stream size                 : 610 MiB (52%)
    Default                     : Yes
    Forced                      : No
    Color range                 : Limited
    Color primaries             : BT.709
    Transfer characteristics    : BT.709
    Matrix coefficients         : BT.709
    
    Audio #1
    ID                          : 2
    Format                      : AC-3
    Format/Info                 : Audio Coding 3
    Mode extension              : CM (complete main)
    Format settings, Endianness : Big
    Codec ID                    : A_AC3
    Duration                    : 58 min
    Bit rate mode               : Constant
    Bit rate                    : 640 kb/s
    Channel(s)                  : 6 channels
    Channel positions           : Front: L C R, Side: L R, LFE
    Sampling rate               : 48.0 kHz
    Frame rate                  : 31.250 FPS (1536 spf)
    Compression mode            : Lossy
    Stream size                 : 269 MiB (23%)
    Title                       : MVO FocusStudio
    Language                    : Russian
    Default                     : Yes
    Forced                      : No
    
    Audio #2
    ID                          : 3
    Format                      : AC-3
    Format/Info                 : Audio Coding 3
    Mode extension              : CM (complete main)
    Format settings, Endianness : Big
    Codec ID                    : A_AC3
    Duration                    : 58 min
    Bit rate mode               : Constant
    Bit rate                    : 640 kb/s
    Channel(s)                  : 6 channels
    Channel positions           : Front: L C R, Side: L R, LFE
    Sampling rate               : 48.0 kHz
    Frame rate                  : 31.250 FPS (1536 spf)
    Compression mode            : Lossy
    Stream size                 : 269 MiB (23%)
    Language                    : English
    Default                     : No
    Forced                      : No
    
     
    • СКАЧАТЬ MAGNET
      (34,5 КБ, 34 Просмотров, Размер: 3,4 ГБ, Сидеры: 3, Личеры: 0, Скачали: 5) Золото
    • Загрузка...
    killer99xxx нравится это.