1. Сайт переделан с 0. Надеемся вы оцените возросшее удобство при использовании. Если вы регистрировались ранее - повторно регистрироваться не нужно. Почти все ваши данные были перенесены. Если не помните пароль - воспользуйтесь восстановлением. Для тех кто заходил через вк - просто зайдите еще раз. Все раздачи со временем вернутся, пока добавляем новые и возвращаем старые. 

    Скрыть объявление

Субура / Suburra / Сезон: 1 / Серии: 1-10 (10) [WEB-DL 1080p]

Тема в разделе "Субура", создана пользователем Devzz, 24 ноя 2017.

  1. Devzz

    Devzz Administrator Команда форума

    Сообщения:
    78
    Субура / Suburra
    1 сезон

    Год выпуска: 2017
    Страна: Италия
    Жанр: боевик, криминал
    Продолжительность: 10 х ~ 40-60 мин
    Озвучание: профессиональное многоголосое закадровое, без цензуры (FocusStudio)
    Субтитры
    : нет

    Режиссёры: Джузеппе Капотонди, Андреа Молайоли, Микеле Плачидо

    В ролях: Алессандро Борги, Джакомо Феррара, Эдуардо Вальдарнини, Франческо Аквароли, Филиппо Нигро, Клаудия Джерини, Адамо Дионизи и другие

    Описание: Сериал расскажет о событиях, происходящих в Субуре — одном из старейших районов Рима, который на протяжении многих лет считался одним из самых опасных на территории города. Здесь процветала торговля наркотиками, проституция, а на тёмных улицах нередко происходили кровавые разборки различных криминальных группировок. В центре сюжета оказываются трое молодых амбициозных парней, чья жажда славы, денег и власти втягивает их в жестокую борьбу за землю в небольшом приморском городке, расположенном недалеко от Рима.


    Релиз: [​IMG]



    Качество: WEB-DL 1080p
    Формат: MKV
    Видео: 1920x1080 (16:9), 25 fps, MPEG-4 AVC ~3500-4000 kbps
    Аудио Rus: 48 kHz, AC3, 6 ch, 384 kbps
    Аудио Ita: 48 kHz, AC3, 6 ch, 384 kbps

    Код:
    Format                      : Matroska
    Format version              : Version 4 / Version 2
    File size                   : 2.20 GiB
    Duration                    : 1 h 2 min
    Overall bit rate mode       : Variable
    Overall bit rate            : 5 017 kb/s
    Movie name                  : Suburra 1x01 @ FocusStudio
    Encoded date                : UTC 2017-11-24 15:15:35
    Writing application         : mkvmerge v8.1.0 ('Psychedelic Postcard') 64bit
    Writing library             : libebml v1.3.1 + libmatroska v1.4.2
    
    Video
    ID                          : 1
    Format                      : AVC
    Format/Info                 : Advanced Video Codec
    Format profile              : Main@L4
    Format settings, CABAC      : Yes
    Format settings, ReFrames   : 3 frames
    Codec ID                    : V_MPEG4/ISO/AVC
    Duration                    : 1 h 2 min
    Bit rate mode               : Variable
    Bit rate                    : 4 149 kb/s
    Nominal bit rate            : 4 420 kb/s
    Maximum bit rate            : 6 630 kb/s
    Width                       : 1 920 pixels
    Height                      : 1 080 pixels
    Display aspect ratio        : 16:9
    Frame rate mode             : Constant
    Frame rate                  : 25.000 FPS
    Color space                 : YUV
    Chroma subsampling          : 4:2:0
    Bit depth                   : 8 bits
    Scan type                   : Progressive
    Bits/(Pixel*Frame)          : 0.080
    Stream size                 : 1.82 GiB (83%)
    Writing library             : x264 core 118
    Encoding settings           : cabac=1 / ref=3 / deblock=1:0:0 / analyse=0x1:0x111 / me=umh / subme=10 / psy=1 / psy_rd=1.00:0.00 / mixed_ref=1 / me_range=24 / chroma_me=1 / trellis=2 / 8x8dct=0 / cqm=0 / deadzone=21,11 / fast_pskip=1 / chroma_qp_offset=-2 / threads=8 / sliced_threads=0 / nr=0 / decimate=1 / interlaced=0 / bluray_compat=0 / constrained_intra=0 / bframes=2 / b_pyramid=0 / b_adapt=2 / b_bias=0 / direct=3 / weightb=1 / open_gop=0 / weightp=2 / keyint=50 / keyint_min=26 / scenecut=0 / intra_refresh=0 / rc_lookahead=0 / rc=2pass / mbtree=1 / bitrate=4420 / ratetol=1.0 / qcomp=0.50 / qpmin=6 / qpmax=51 / qpstep=4 / cplxblur=20.0 / qblur=0.5 / vbv_maxrate=6630 / vbv_bufsize=8840 / nal_hrd=vbr / ip_ratio=1.40 / aq=1:1.00
    Default                     : Yes
    Forced                      : No
    
    Audio #1
    ID                          : 2
    Format                      : AC-3
    Format/Info                 : Audio Coding 3
    Mode extension              : CM (complete main)
    Format settings, Endianness : Big
    Codec ID                    : A_AC3
    Duration                    : 1 h 2 min
    Bit rate mode               : Constant
    Bit rate                    : 384 kb/s
    Channel(s)                  : 6 channels
    Channel positions           : Front: L C R, Side: L R, LFE
    Sampling rate               : 48.0 kHz
    Frame rate                  : 31.250 FPS (1536 spf)
    Compression mode            : Lossy
    Stream size                 : 172 MiB (8%)
    Title                       : MVO FocusStudio
    Language                    : Russian
    Default                     : Yes
    Forced                      : No
    
    Audio #2
    ID                          : 3
    Format                      : AC-3
    Format/Info                 : Audio Coding 3
    Mode extension              : CM (complete main)
    Format settings, Endianness : Big
    Codec ID                    : A_AC3
    Duration                    : 1 h 2 min
    Bit rate mode               : Constant
    Bit rate                    : 384 kb/s
    Channel(s)                  : 6 channels
    Channel positions           : Front: L C R, Side: L R, LFE
    Sampling rate               : 48.0 kHz
    Frame rate                  : 31.250 FPS (1536 spf)
    Compression mode            : Lossy
    Stream size                 : 172 MiB (8%)
    Language                    : Italian
    Default                     : No
    Forced                      : No
    
     
    • СКАЧАТЬ MAGNET
      (172,4 КБ, 18 Просмотров, Размер: 17,1 ГБ, Сидеры: 2, Личеры: 0, Скачали: 2) Золото
    • Загрузка...