1. Сайт переделан с 0. Надеемся вы оцените возросшее удобство при использовании. Если вы регистрировались ранее - повторно регистрироваться не нужно. Почти все ваши данные были перенесены. Если не помните пароль - воспользуйтесь восстановлением. Для тех кто заходил через вк - просто зайдите еще раз. Все раздачи со временем вернутся, пока добавляем новые и возвращаем старые. 

    Скрыть объявление

Алиенист / The Alienist / Сезон: 1 / Серии: 1-5 (10) [WEB-DL 1080p]

Тема в разделе "Алиенист", создана пользователем Devzz, 26 янв 2018.

  1. Devzz

    Devzz Administrator Команда форума

    Сообщения:
    121
    Алиенист / The Alienist
    1 сезон 1-5 cерии

    Год выпуска: 2018
    Страна: США
    Жанр: драма, детектив
    Продолжительность: 10 х ~ 40-50 мин
    Озвучание: профессиональное многоголосое закадровое (FocusStudio)
    Cубтитры
    : нет

    Режиссёр: Пако Кабесас, Джеймс Хоуз, Джэми Пэйн

    В ролях: Даниэль Брюль, Дакота Фаннинг, Люк Эванс, Мэттью Линтц, Мартин МакКриди, Мэттью Шир, Дуглас Смит, Дэвид Уилмот, К’Орианка Килчер и другие


    Описание: В конце XIX века, в 1896 году, Нью-Йорк потрясает серия жестоких убийств: в городских трущобах убивают детей, с каждым разом все более и более изощренно — будто исполняется какой-то кровавый ритуал. Расследование ведет яркая команда: будущий президент, а пока комиссар полиции Теодор Рузвельт, выдающийся психолог-алиенист (изучает умственные патологии) Ласло Крайцлер и репортер уголовной хроники Джон Скайлер Мур.


    Релиз: [​IMG]



    Качество: WEB-DL 1080p
    Формат: MKV
    Видео: 1920x1080, 23.976 fps, MPEG-4 AVC ~6000 kbps avg, 0.12 bit/pixel
    Аудио Rus: 48 kHz, AC3, 6 ch, 640 kbps
    Аудио Eng: 48 kHz, AC3, 6 ch, 640 kbps

    Код:
    General
    Unique ID                   : 177544097275549632818654638057638314266 (0x8591BFD4B1EB7A2ABEF2587C8783C11A)
    Complete name               : The.Alienist.S01E01.WEB-DL.1080p.FocusStudio.mkv
    Format                      : Matroska
    Format version              : Version 4 / Version 2
    File size                   : 2.52 GiB
    Duration                    : 48 min 15 s
    Overall bit rate mode       : Variable
    Overall bit rate            : 7 485 kb/s
    Movie name                  : The Alienist 1x01 @ FocusStudio
    Encoded date                : UTC 2018-01-26 16:39:20
    Writing application         : mkvmerge v8.1.0 ('Psychedelic Postcard') 64bit
    Writing library             : libebml v1.3.1 + libmatroska v1.4.2
    
    Video
    ID                          : 1
    Format                      : AVC
    Format/Info                 : Advanced Video Codec
    Format profile              : High@L4
    Format settings             : CABAC / 4 Ref Frames
    Format settings, CABAC      : Yes
    Format settings, ReFrames   : 4 frames
    Codec ID                    : V_MPEG4/ISO/AVC
    Duration                    : 48 min 15 s
    Bit rate mode               : Variable
    Bit rate                    : 6 056 kb/s
    Maximum bit rate            : 15.0 Mb/s
    Width                       : 1 920 pixels
    Height                      : 1 080 pixels
    Display aspect ratio        : 16:9
    Frame rate mode             : Constant
    Frame rate                  : 23.976 (24000/1001) FPS
    Color space                 : YUV
    Chroma subsampling          : 4:2:0
    Bit depth                   : 8 bits
    Scan type                   : Progressive
    Bits/(Pixel*Frame)          : 0.122
    Stream size                 : 2.04 GiB (81%)
    Default                     : Yes
    Forced                      : No
    Color range                 : Limited
    Color primaries             : BT.709
    Transfer characteristics    : BT.709
    Matrix coefficients         : BT.709
    
    Audio #1
    ID                          : 2
    Format                      : AC-3
    Format/Info                 : Audio Coding 3
    Codec ID                    : A_AC3
    Duration                    : 48 min 15 s
    Bit rate mode               : Constant
    Bit rate                    : 640 kb/s
    Channel(s)                  : 6 channels
    Channel positions           : Front: L C R, Side: L R, LFE
    Sampling rate               : 48.0 kHz
    Frame rate                  : 31.250 FPS (1536 SPF)
    Bit depth                   : 16 bits
    Compression mode            : Lossy
    Stream size                 : 221 MiB (9%)
    Title                       : MVO FocusStudio
    Language                    : Russian
    Service kind                : Complete Main
    Default                     : Yes
    Forced                      : No
    
    Audio #2
    ID                          : 3
    Format                      : AC-3
    Format/Info                 : Audio Coding 3
    Codec ID                    : A_AC3
    Duration                    : 48 min 15 s
    Bit rate mode               : Constant
    Bit rate                    : 640 kb/s
    Channel(s)                  : 6 channels
    Channel positions           : Front: L C R, Side: L R, LFE
    Sampling rate               : 48.0 kHz
    Frame rate                  : 31.250 FPS (1536 SPF)
    Bit depth                   : 16 bits
    Compression mode            : Lossy
    Stream size                 : 221 MiB (9%)
    Language                    : English
    Service kind                : Complete Main
    Default                     : No
    Forced                      : No
    
     
    • СКАЧАТЬ MAGNET
      (59,7 КБ, 94 Просмотров, Размер: 11,8 ГБ, Сидеры: 2, Личеры: 0, Скачали: 2) Золото
    • Загрузка...
    Последнее редактирование: 24 фев 2018