1. Сайт переделан с 0. Надеемся вы оцените возросшее удобство при использовании. Если вы регистрировались ранее - повторно регистрироваться не нужно. Почти все ваши данные были перенесены. Если не помните пароль - воспользуйтесь восстановлением. Для тех кто заходил через вк - просто зайдите еще раз. Все раздачи со временем вернутся, пока добавляем новые и возвращаем старые. 

    Скрыть объявление

Уэйко / Waco / Сезон: 1 / Серии: 1-6 (6) [WEB-DL 1080p]

Тема в разделе "Уэйко", создана пользователем Devzz, 28 янв 2018.

  1. Devzz

    Devzz Administrator Команда форума

    Сообщения:
    140
    Уэйко / Waco
    1 сезон

    Год выпуска: 2018
    Страна: США
    Жанр: драма, детектив, триллер
    Продолжительность: 6 х ~ 40-50 мин
    Озвучание: профессиональное многоголосое закадровое (FocusStudio)
    Cубтитры
    : нет

    Режиссёр: Джон Эрик Даудл, Дэнни Гордон

    В ролях: Тейлор Китч, Майкл Шеннон, Андреа Райзборо, Пол Спаркс, Рори Калкин, Шей Уигэм, Мелисса Бенойст, Джон Легуизамо, Демор Барнс, Анника Марк и другие


    Описание: Минисериал основан на трагических событиях весны 1993 года, когда жители ранчо «Маунт Кармел» были заподозрены в незаконном хранении оружия. В ходе облавы завязалась перестрелка, которая привела к вооруженному противостоянию между сектантами и агентами ФБР, продлившемуся 51 день. За время осады погибли 82 члена секты, в том числе и сам Кореш, а также 4 федеральных агента.


    Релиз: [​IMG]



    Качество: WEB-DL 1080p
    Формат: MKV
    Видео: 1920x1080, 23.976 fps, MPEG-4 AVC ~6000 kbps avg, 0.12 bit/pixel
    Аудио Rus: AC3, 48 kHz, 2 ch, 224 kbps
    Аудио Eng: AC3, 48 kHz, 2 ch, 224 kbps

    Код:
    General
    Unique ID : 201761286335097026077505808213167527677 (0x97C9CF6FA1385EC389145DC0E4A756FD)
    Complete name : Waco.S01E01.WEB-DL.1080p.FocusStudio.mkv
    Format : Matroska
    Format version : Version 4 / Version 2
    File size : 2.53 GiB
    Duration : 47 min 55 s
    Overall bit rate mode : Variable
    Overall bit rate : 7 551 kb/s
    Movie name : Waco 1x01 @ FocusStudio
    Encoded date : UTC 2018-01-28 16:50:06
    Writing application : mkvmerge v8.1.0 ('Psychedelic Postcard') 64bit
    Writing library : libebml v1.3.1 + libmatroska v1.4.2
    
    Video
    ID : 1
    Format : AVC
    Format/Info : Advanced Video Codec
    Format profile : High@L4
    Format settings : CABAC / 4 Ref Frames
    Format settings, CABAC : Yes
    Format settings, ReFrames : 4 frames
    Codec ID : V_MPEG4/ISO/AVC
    Duration : 47 min 55 s
    Bit rate mode : Variable
    Bit rate : 6 953 kb/s
    Maximum bit rate : 15.0 Mb/s
    Width : 1 920 pixels
    Height : 1 080 pixels
    Display aspect ratio : 16:9
    Frame rate mode : Constant
    Frame rate : 23.976 (24000/1001) FPS
    Color space : YUV
    Chroma subsampling : 4:2:0
    Bit depth : 8 bits
    Scan type : Progressive
    Bits/(Pixel*Frame) : 0.140
    Stream size : 2.33 GiB (92%)
    Default : Yes
    Forced : No
    Color range : Limited
    Color primaries : BT.709
    Transfer characteristics : BT.709
    Matrix coefficients : BT.709
    
    Audio #1
    ID : 2
    Format : AC-3
    Format/Info : Audio Coding 3
    Codec ID : A_AC3
    Duration : 47 min 55 s
    Bit rate mode : Constant
    Bit rate : 224 kb/s
    Channel(s) : 2 channels
    Channel positions : Front: L R
    Sampling rate : 48.0 kHz
    Frame rate : 31.250 FPS (1536 SPF)
    Bit depth : 16 bits
    Compression mode : Lossy
    Stream size : 76.8 MiB (3%)
    Title : MVO FocusStudio
    Language : Russian
    Service kind : Complete Main
    Default : Yes
    Forced : No
    
    Audio #2
    ID : 3
    Format : AC-3
    Format/Info : Audio Coding 3
    Codec ID : A_AC3
    Duration : 47 min 55 s
    Bit rate mode : Constant
    Bit rate : 224 kb/s
    Channel(s) : 2 channels
    Channel positions : Front: L R
    Sampling rate : 48.0 kHz
    Frame rate : 31.250 FPS (1536 SPF)
    Bit depth : 16 bits
    Compression mode : Lossy
    Stream size : 76.8 MiB (3%)
    Language : English
    Service kind : Complete Main
    Default : No
    Forced : No
    
     
    • СКАЧАТЬ MAGNET
      (80,3 КБ, 155 Просмотров, Размер: 15,9 ГБ, Сидеры: 1, Личеры: 0, Скачали: 0) Золото
    • Загрузка...
    Последнее редактирование: 6 мар 2018
    killer99xxx и lipovan нравится это.