1. Сайт переделан с 0. Надеемся вы оцените возросшее удобство при использовании. Если вы регистрировались ранее - повторно регистрироваться не нужно. Почти все ваши данные были перенесены. Если не помните пароль - воспользуйтесь восстановлением. Для тех кто заходил через вк - просто зайдите еще раз. Все раздачи со временем вернутся, пока добавляем новые и возвращаем старые. 

    Скрыть объявление

Взлет / Rise / Сезон: 1 / Серии: 1 (10) [WEB-DL 1080p]

Тема в разделе "Взлет", создана пользователем Devzz, 25 мар 2018.

  1. Devzz

    Devzz Administrator Команда форума

    Сообщения:
    134
    Взлет / Rise
    1 сезон 1 серия

    Год выпуска: 2018
    Страна: США
    Жанр: драма, мелодрама, мюзикл
    Продолжительность: 10 х ~ 40-50 мин
    Озвучание: профессиональное многоголосое закадровое (FocusStudio)
    Cубтитры
    : на песни

    Режиссёр: Патрик Р. Норрис, Мишель Латимер, Майк Кэхилл

    В ролях: Джош Рэднор, Аулии Кравальо, Эми Форсайт, Рармиан Ньютон, Кэйси Джонсон, Шеннон Пёрсер, Рэйчел Хилсон и другие


    Описание: Лу Маззукелли — преданный своему делу учитель и семьянин, который однажды избавляется от неуверенности в себе и берет под своё крыло школьный театральный кружок, находящийся практически в безнадёжном состоянии. В итоге самоотверженная работа Лу меняет жизнь не только школы, но и всего рабочего городка.


    Релиз: [​IMG]



    Качество: WEB-DL 1080p
    Формат: MKV
    Видео: 1920x1080, 23.976 fps, MPEG-4 AVC ~12000 kbps avg, 0.25 bit/pixel
    Аудио Rus: 48 kHz, AC3, 6 ch, 640 kbps
    Аудио Eng: 48 kHz, AC3, 6 ch, 640 kbps

    Код:
    General
    Unique ID : 228301857388274589989563406619194279689 (0xABC1569E2092F13CA974207CDEA1C709)
    Complete name : Rise.2018.S01E01.WEB-DL.1080p.FocusStudio.mkv
    Format : Matroska
    Format version : Version 4 / Version 2
    File size : 4.38 GiB
    Duration : 43 min 44 s
    Overall bit rate mode : Variable
    Overall bit rate : 14.3 Mb/s
    Movie name : Rise 1x01 @ FocusStudio
    Encoded date : UTC 2018-03-25 17:17:00
    Writing application : mkvmerge v8.1.0 ('Psychedelic Postcard') 64bit
    Writing library : libebml v1.3.1 + libmatroska v1.4.2
    
    Video
    ID : 1
    Format : AVC
    Format/Info : Advanced Video Codec
    Format profile : High@L4
    Format settings : CABAC / 4 Ref Frames
    Format settings, CABAC : Yes
    Format settings, ReFrames : 4 frames
    Codec ID : V_MPEG4/ISO/AVC
    Duration : 43 min 44 s
    Bit rate mode : Variable
    Bit rate : 12.8 Mb/s
    Maximum bit rate : 15.0 Mb/s
    Width : 1 920 pixels
    Height : 1 080 pixels
    Display aspect ratio : 16:9
    Frame rate mode : Constant
    Frame rate : 23.976 (24000/1001) FPS
    Color space : YUV
    Chroma subsampling : 4:2:0
    Bit depth : 8 bits
    Scan type : Progressive
    Bits/(Pixel*Frame) : 0.257
    Stream size : 3.90 GiB (89%)
    Language : English
    Default : Yes
    Forced : No
    Color range : Limited
    Color primaries : BT.709
    Transfer characteristics : BT.709
    Matrix coefficients : BT.709
    
    Audio #1
    ID : 2
    Format : AC-3
    Format/Info : Audio Coding 3
    Codec ID : A_AC3
    Duration : 43 min 44 s
    Bit rate mode : Constant
    Bit rate : 640 kb/s
    Channel(s) : 6 channels
    Channel positions : Front: L C R, Side: L R, LFE
    Sampling rate : 48.0 kHz
    Frame rate : 31.250 FPS (1536 SPF)
    Bit depth : 16 bits
    Compression mode : Lossy
    Stream size : 200 MiB (4%)
    Title : MVO FocusStudio
    Language : Russian
    Service kind : Complete Main
    Default : Yes
    Forced : No
    
    Audio #2
    ID : 3
    Format : AC-3
    Format/Info : Audio Coding 3
    Codec ID : A_AC3
    Duration : 43 min 44 s
    Bit rate mode : Constant
    Bit rate : 640 kb/s
    Channel(s) : 6 channels
    Channel positions : Front: L C R, Side: L R, LFE
    Sampling rate : 48.0 kHz
    Frame rate : 31.250 FPS (1536 SPF)
    Bit depth : 16 bits
    Compression mode : Lossy
    Stream size : 200 MiB (4%)
    Language : English
    Service kind : Complete Main
    Default : No
    Forced : No
    
    Text
    ID : 4
    Format : ASS
    Codec ID : S_TEXT/ASS
    Codec ID/Info : Advanced Sub Station Alpha
    Compression mode : Lossless
    Title : Forced
    Language : Russian
    Default : Yes
    Forced : Yes
    
     
    • СКАЧАТЬ MAGNET
      (22,1 КБ, 94 Просмотров, Размер: 4,4 ГБ, Сидеры: 1, Личеры: 0, Скачали: 1) Золото
    • Загрузка...
    Последнее редактирование: 25 мар 2018