1. Сайт переделан с 0. Надеемся вы оцените возросшее удобство при использовании. Если вы регистрировались ранее - повторно регистрироваться не нужно. Почти все ваши данные были перенесены. Если не помните пароль - воспользуйтесь восстановлением. Для тех кто заходил через вк - просто зайдите еще раз. Все раздачи со временем вернутся, пока добавляем новые и возвращаем старые. 

    Скрыть объявление

Инстинкт / Instinct / Сезон: 1 / Серии: 1-3 (13) [WEB-DL 1080p]

Тема в разделе "Инстинкт", создана пользователем Devzz, 5 апр 2018.

  1. Devzz

    Devzz Administrator Команда форума

    Сообщения:
    134
    Инстинкт / Instinct
    1 сезон 1-3 серии

    Год выпуска: 2018
    Страна: США
    Жанр: драма, детектив
    Продолжительность: 13 х ~ 46-50 мин
    Озвучание: профессиональное многоголосое закадровое (FocusStudio)
    Субтитры
    : нет

    Режиссёры: Ута Бризвитц, Джереми Подесва, Алан Болл и другие

    В ролях: Алан Камминг, Бояна Новакович, Майкл Б. Сильвер, Дэниэл Ингс, Шэрон Лил, Навин Эндрюс, Вупи Голдберг, Райна Старр, Дженнифер Лаура Томпсон, Джон Майньери и другие

    Описание: Главный герой сериала — бывший сотрудник ЦРУ, который уже давно отошел от дел и живет «нормальной» жизнью. Однако ему приходится вернуться на службу, чтобы помочь своим бывшим коллегам поймать серийного убийцу.


    Релиз: [​IMG]



    Качество: WEB-DL 1080p
    Формат: MKV
    Видео: 1920x1080 (16:9), 23.976 fps, MPEG-4 AVC ~11000 kbps
    Аудио Rus: 48 kHz, AC3, 6 ch, 640 kbps
    Аудио Eng: 48 kHz, AC3, 6 ch, 640 kbps

    Код:
    General
    Unique ID : 223411424259046499609970379651589370019 (0xA81379A60B166E3A97392982AB0470A3)
    Complete name : Instinct.S01E01.WEB-DL.1080p.FocusStudio.mkv
    Format : Matroska
    Format version : Version 4 / Version 2
    File size : 2.91 GiB
    Duration : 43 min 22 s
    Overall bit rate mode : Variable
    Overall bit rate : 9 618 kb/s
    Movie name : Instinct 1x01 @ FocusStudio
    Encoded date : UTC 2018-04-05 16:33:39
    Writing application : mkvmerge v8.1.0 ('Psychedelic Postcard') 64bit
    Writing library : libebml v1.3.1 + libmatroska v1.4.2
    
    Video
    ID : 1
    Format : AVC
    Format/Info : Advanced Video Codec
    Format profile : High@L4
    Format settings : CABAC / 4 Ref Frames
    Format settings, CABAC : Yes
    Format settings, ReFrames : 4 frames
    Codec ID : V_MPEG4/ISO/AVC
    Duration : 43 min 22 s
    Bit rate mode : Variable
    Bit rate : 8 147 kb/s
    Maximum bit rate : 15.0 Mb/s
    Width : 1 920 pixels
    Height : 1 080 pixels
    Display aspect ratio : 16:9
    Frame rate mode : Constant
    Frame rate : 23.976 (24000/1001) FPS
    Color space : YUV
    Chroma subsampling : 4:2:0
    Bit depth : 8 bits
    Scan type : Progressive
    Bits/(Pixel*Frame) : 0.164
    Stream size : 2.47 GiB (85%)
    Default : Yes
    Forced : No
    Color range : Limited
    Color primaries : BT.709
    Transfer characteristics : BT.709
    Matrix coefficients : BT.709
    
    Audio #1
    ID : 2
    Format : AC-3
    Format/Info : Audio Coding 3
    Codec ID : A_AC3
    Duration : 43 min 22 s
    Bit rate mode : Constant
    Bit rate : 640 kb/s
    Channel(s) : 6 channels
    Channel positions : Front: L C R, Side: L R, LFE
    Sampling rate : 48.0 kHz
    Frame rate : 31.250 FPS (1536 SPF)
    Bit depth : 16 bits
    Compression mode : Lossy
    Stream size : 199 MiB (7%)
    Title : MVO FocusStudio
    Language : Russian
    Service kind : Complete Main
    Default : Yes
    Forced : No
    
    Audio #2
    ID : 3
    Format : AC-3
    Format/Info : Audio Coding 3
    Codec ID : A_AC3
    Duration : 43 min 22 s
    Bit rate mode : Constant
    Bit rate : 640 kb/s
    Channel(s) : 6 channels
    Channel positions : Front: L C R, Side: L R, LFE
    Sampling rate : 48.0 kHz
    Frame rate : 31.250 FPS (1536 SPF)
    Bit depth : 16 bits
    Compression mode : Lossy
    Stream size : 199 MiB (7%)
    Language : English
    Service kind : Complete Main
    Default : No
    Forced : No
    
     
    • СКАЧАТЬ MAGNET
      (50,5 КБ, 93 Просмотров, Размер: 10 ГБ, Сидеры: 2, Личеры: 0, Скачали: 1) Золото
    • Загрузка...
    Последнее редактирование: 9 апр 2018