1. Сайт переделан с 0. Надеемся вы оцените возросшее удобство при использовании. Если вы регистрировались ранее - повторно регистрироваться не нужно. Почти все ваши данные были перенесены. Если не помните пароль - воспользуйтесь восстановлением. Для тех кто заходил через вк - просто зайдите еще раз. Все раздачи со временем вернутся, пока добавляем новые и возвращаем старые. 

    Скрыть объявление

Стартап / Alex Inc / Сезон: 1 / Серии: 1 (10) [WEB-DL 1080p]

Тема в разделе "Стартап", создана пользователем Devzz, 5 апр 2018.

  1. Devzz

    Devzz Administrator Команда форума

    Сообщения:
    145
    Стартап / Alex Inc
    1 сезон, 1 серия

    Год выпуска: 2018
    Страна: США
    Жанр: комедия
    Продолжительность: 10 х ~ 22 мин
    Озвучание: профессиональное многоголосое закадровое (FocusStudio)
    Субтитры
    : нет

    Режиссеры: Зак Брафф

    В ролях: Зак Брафф, Элиша Хениг, Одисси Джеймс, Тия Сиркар, Анджали Бимани, Джон Патрик Джордан, Майкл Империоли и другие

    Описание: Блестящий радиожурналист, муж и отец двоих детей скоро совершит нечто безумное — бросит работу и займется основанием собственной компании. Он быстро обнаруживает, что выполнить эту задачу будет намного сложнее, чем предполагалось.


    Релиз: [​IMG]



    Качество: WEB-DL 1080p
    Формат: MKV
    Видео: 1920x1080 (16:9), 23.976 fps, MPEG-4 AVC ~9000 kbps, 0.18 bit/pixel
    Аудио Rus: 48 kHz, AC3 Dolby Digital, 3/2 (L,C,R,l,r) + LFE ch, 640.00 kbps
    Аудио Eng: 48 kHz, AC3 Dolby Digital, 3/2 (L,C,R,l,r) + LFE ch, 640.00 kbps

    General
    Unique ID : 209079547766977070612646786846036343496 (0x9D4B419508D61A52ADB03F9B17343AC8)
    Complete name : Alex.Inc.S01E01.WEB-DL.1080p.FocusStudio.mkv
    Format : Matroska
    Format version : Version 4 / Version 2
    File size : 1.92 GiB
    Duration : 22 min 8 s
    Overall bit rate mode : Variable
    Overall bit rate : 12.4 Mb/s
    Movie name : Alex Inc 1x01 @ FocusStudio
    Encoded date : UTC 2018-04-05 16:43:24
    Writing application : mkvmerge v8.1.0 ('Psychedelic Postcard') 64bit
    Writing library : libebml v1.3.1 + libmatroska v1.4.2

    Video
    ID : 1
    Format : AVC
    Format/Info : Advanced Video Codec
    Format profile : High@L4
    Format settings : CABAC / 4 Ref Frames
    Format settings, CABAC : Yes
    Format settings, ReFrames : 4 frames
    Codec ID : V_MPEG4/ISO/AVC
    Duration : 22 min 8 s
    Bit rate mode : Variable
    Bit rate : 10.9 Mb/s
    Maximum bit rate : 15.0 Mb/s
    Width : 1 920 pixels
    Height : 1 080 pixels
    Display aspect ratio : 16:9
    Frame rate mode : Constant
    Frame rate : 23.976 (24000/1001) FPS
    Color space : YUV
    Chroma subsampling : 4:2:0
    Bit depth : 8 bits
    Scan type : Progressive
    Bits/(Pixel*Frame) : 0.220
    Stream size : 1.69 GiB (88%)
    Default : Yes
    Forced : No
    Color range : Limited
    Color primaries : BT.709
    Transfer characteristics : BT.709
    Matrix coefficients : BT.709

    Audio #1
    ID : 2
    Format : AC-3
    Format/Info : Audio Coding 3
    Codec ID : A_AC3
    Duration : 22 min 8 s
    Bit rate mode : Constant
    Bit rate : 640 kb/s
    Channel(s) : 6 channels
    Channel positions : Front: L C R, Side: L R, LFE
    Sampling rate : 48.0 kHz
    Frame rate : 31.250 FPS (1536 SPF)
    Bit depth : 16 bits
    Compression mode : Lossy
    Stream size : 101 MiB (5%)
    Title : MVO FocusStudio
    Language : Russian
    Service kind : Complete Main
    Default : Yes
    Forced : No

    Audio #2
    ID : 3
    Format : AC-3
    Format/Info : Audio Coding 3
    Codec ID : A_AC3
    Duration : 22 min 8 s
    Bit rate mode : Constant
    Bit rate : 640 kb/s
    Channel(s) : 6 channels
    Channel positions : Front: L C R, Side: L R, LFE
    Sampling rate : 48.0 kHz
    Frame rate : 31.250 FPS (1536 SPF)
    Bit depth : 16 bits
    Compression mode : Lossy
    Stream size : 101 MiB (5%)
    Language : English
    Service kind : Complete Main
    Default : No
    Forced : No
     
    • СКАЧАТЬ MAGNET
      (9,9 КБ, 147 Просмотров, Размер: 1,9 ГБ, Сидеры: 1, Личеры: 0, Скачали: 0) Золото
    • Загрузка...
    Последнее редактирование модератором: 6 апр 2018