1. Сайт переделан с 0. Надеемся вы оцените возросшее удобство при использовании. Если вы регистрировались ранее - повторно регистрироваться не нужно. Почти все ваши данные были перенесены. Если не помните пароль - воспользуйтесь восстановлением. Для тех кто заходил через вк - просто зайдите еще раз. Все раздачи со временем вернутся, пока добавляем новые и возвращаем старые. 

    Скрыть объявление

Другой / Counterpart / Сезон: 1 / Серии: 1-9 (10) [WEB-DL 1080p]

Тема в разделе "Другой", создана пользователем Devzz, 18 апр 2018.

  1. Devzz

    Devzz Administrator Команда форума

    Сообщения:
    117
    Другой / Counterpart
    1 сезон 1-9 серия

    Год выпуска: 2018
    Страна: США
    Жанр: драма, триллер
    Продолжительность: 10 х ~ 40-50 мин
    Озвучание: профессиональное многоголосое закадровое, без цензуры (FocusStudio)
    Cубтитры
    : нет

    Режиссёр: Дженнифер Гетцингер, Алик Сахаров, Стивен Уильямс и другие

    В ролях: Дж.К. Симмонс, Гарри Ллойд, Оливия Уильямс, Назанин Бониади, Сара Серайокко, Ульрих Томсен, Мидо Хамада, Николас Пиннок, Стивен Ри, Нолан Джерард Фанк


    Описание: Говард Силк — незначительный винтик в бюрократической системе. Однажды герой обнаруживает, что агентство, в котором он работает, на самом деле занимается охраной переходов в параллельное измерение.


    Релиз: [​IMG]



    Качество: WEB-DL 1080p
    Формат: MKV
    Видео: 1920x1080, 23.976 fps, MPEG-4 AVC ~6000-8000 kbps avg
    Аудио Rus: 48 kHz, AC3, 6 ch, 640 kbps
    Аудио Eng: 48 kHz, AC3, 6 ch, 640 kbps

    Код:
    General
    Unique ID : 229530238708087106675673297983581889934 (0xACADEA7E202E280EB9EEF992454EA58E)
    Complete name : Counterpart.S01E01.WEB-DL.1080p.FocusStudio.mkv
    Format : Matroska
    Format version : Version 4 / Version 2
    File size : 2.86 GiB
    Duration : 57 min 10 s
    Overall bit rate mode : Variable
    Overall bit rate : 7 159 kb/s
    Movie name : Counterpart 1x01 @ FocusStudio
    Encoded date : UTC 2018-04-17 14:04:35
    Writing application : mkvmerge v8.1.0 ('Psychedelic Postcard') 64bit
    Writing library : libebml v1.3.1 + libmatroska v1.4.2
    
    Video
    ID : 1
    Format : AVC
    Format/Info : Advanced Video Codec
    Format profile : High@L4
    Format settings : CABAC / 4 Ref Frames
    Format settings, CABAC : Yes
    Format settings, ReFrames : 4 frames
    Codec ID : V_MPEG4/ISO/AVC
    Duration : 57 min 10 s
    Bit rate mode : Variable
    Bit rate : 5 736 kb/s
    Maximum bit rate : 15.0 Mb/s
    Width : 1 920 pixels
    Height : 1 080 pixels
    Display aspect ratio : 16:9
    Frame rate mode : Constant
    Frame rate : 23.976 (24000/1001) FPS
    Color space : YUV
    Chroma subsampling : 4:2:0
    Bit depth : 8 bits
    Scan type : Progressive
    Bits/(Pixel*Frame) : 0.115
    Stream size : 2.29 GiB (80%)
    Default : Yes
    Forced : No
    Color range : Limited
    Color primaries : BT.709
    Transfer characteristics : BT.709
    Matrix coefficients : BT.709
    
    Audio #1
    ID : 2
    Format : AC-3
    Format/Info : Audio Coding 3
    Codec ID : A_AC3
    Duration : 57 min 10 s
    Bit rate mode : Constant
    Bit rate : 640 kb/s
    Channel(s) : 6 channels
    Channel positions : Front: L C R, Side: L R, LFE
    Sampling rate : 48.0 kHz
    Frame rate : 31.250 FPS (1536 SPF)
    Bit depth : 16 bits
    Compression mode : Lossy
    Stream size : 262 MiB (9%)
    Title : MVO FocusStudio
    Language : Russian
    Service kind : Complete Main
    Default : Yes
    Forced : No
    
    Audio #2
    ID : 3
    Format : AC-3
    Format/Info : Audio Coding 3
    Codec ID : A_AC3
    Duration : 57 min 10 s
    Bit rate mode : Constant
    Bit rate : 640 kb/s
    Channel(s) : 6 channels
    Channel positions : Front: L C R, Side: L R, LFE
    Sampling rate : 48.0 kHz
    Frame rate : 31.250 FPS (1536 SPF)
    Bit depth : 16 bits
    Compression mode : Lossy
    Stream size : 262 MiB (9%)
    Language : English
    Service kind : Complete Main
    Default : No
    Forced : No
    
     
    • СКАЧАТЬ MAGNET
      (130,1 КБ, 40 Просмотров, Размер: 25,8 ГБ, Сидеры: 1, Личеры: 0, Скачали: 0) Золото
    • Загрузка...