1. Сайт переделан с 0. Надеемся вы оцените возросшее удобство при использовании. Если вы регистрировались ранее - повторно регистрироваться не нужно. Почти все ваши данные были перенесены. Если не помните пароль - воспользуйтесь восстановлением. Для тех кто заходил через вк - просто зайдите еще раз. Все раздачи со временем вернутся, пока добавляем новые и возвращаем старые. 

    Скрыть объявление

Подлый Пит / Sneaky Pete / Сезон: 2 / Серии: 1-10 (10) [WEB-DL 1080p]

Тема в разделе "Подлый пит", создана пользователем Devzz, 25 июн 2018.

  1. Devzz

    Devzz Administrator Команда форума

    Сообщения:
    145
    Подлый Пит / Sneaky Pete
    2 сезон

    Год выпуска: 2018
    Страна: США
    Жанр: драма, триллер, детектив
    Продолжительность: 10 х ~ 40-50 мин
    Озвучание: профессиональное многоголосое закадровое, без цензуры (FocusStudio)
    Cубтитры
    : нет

    Режиссёр: Майкл Диннер, Адам Аркин, Лора Иннес и другие

    В ролях: Джованни Рибизи, Марин Айрлэнд, Шэйн МакРей, Либэ Барер, Питер Герети, Марго Мартиндейл, Джей О. Сэндерс, Джастин Котсонас, Элисон Райт, Джекоб Питтс и другие


    Описание: По сюжету молодой мошенник Пит, отсидев положенный срок, решает завязать с тёмным прошлым, примерив на себя личину бывшего сокамерника. Скрываясь от местной мафии, парень пристраивается в семейный бизнес того самого сокамерника. Со временем он осознает, что такое настоящая семья, и даже обретёт любовь всей своей жизни, но прошлые грехи не позволят ему расслабиться ни на минуту, угрожая уничтожить и главного героя, и его новую жизнь.


    Релиз: [​IMG]



    Качество: WEB-DL 1080p
    Формат: MKV
    Видео: 1920x1080, 23.976 fps, MPEG-4 AVC ~10000 kbps avg
    Аудио Rus: 48 kHz, AC3, 6 ch, 640 kbps
    Аудио Eng: 48 kHz, AC3, 6 ch, 640kbps

    Код:
    General
    Unique ID : 228985281810804461525465253627916913812 (0xAC44F60B10A0E692BD54FA53C8A70C94)
    Complete name : Sneaky.Pete.S02E01.WEB-DL.1080p.FocusStudio.mkv
    Format : Matroska
    Format version : Version 4 / Version 2
    File size : 4.57 GiB
    Duration : 53 min 58 s
    Overall bit rate mode : Variable
    Overall bit rate : 12.1 Mb/s
    Movie name : Sneaky Pete 2x01 @ FocusStudio
    Encoded date : UTC 2018-06-21 17:26:41
    Writing application : mkvmerge v8.1.0 ('Psychedelic Postcard') 64bit
    Writing library : libebml v1.3.1 + libmatroska v1.4.2
    
    Video
    ID : 1
    Format : AVC
    Format/Info : Advanced Video Codec
    Format profile : High@L4
    Format settings : CABAC / 4 Ref Frames
    Format settings, CABAC : Yes
    Format settings, ReFrames : 4 frames
    Codec ID : V_MPEG4/ISO/AVC
    Duration : 53 min 58 s
    Bit rate mode : Variable
    Bit rate : 10.6 Mb/s
    Maximum bit rate : 15.0 Mb/s
    Width : 1 920 pixels
    Height : 1 080 pixels
    Display aspect ratio : 16:9
    Frame rate mode : Constant
    Frame rate : 23.976 (24000/1001) FPS
    Color space : YUV
    Chroma subsampling : 4:2:0
    Bit depth : 8 bits
    Scan type : Progressive
    Bits/(Pixel*Frame) : 0.213
    Stream size : 4.00 GiB (87%)
    Default : Yes
    Forced : No
    Color range : Limited
    Color primaries : BT.709
    Transfer characteristics : BT.709
    Matrix coefficients : BT.709
    
    Audio #1
    ID : 2
    Format : AC-3
    Format/Info : Audio Coding 3
    Codec ID : A_AC3
    Duration : 53 min 58 s
    Bit rate mode : Constant
    Bit rate : 640 kb/s
    Channel(s) : 6 channels
    Channel positions : Front: L C R, Side: L R, LFE
    Sampling rate : 48.0 kHz
    Frame rate : 31.250 FPS (1536 SPF)
    Bit depth : 16 bits
    Compression mode : Lossy
    Stream size : 247 MiB (5%)
    Title : MVO FocusStudio
    Language : Russian
    Service kind : Complete Main
    Default : Yes
    Forced : No
    
    Audio #2
    ID : 3
    Format : AC-3
    Format/Info : Audio Coding 3
    Codec ID : A_AC3
    Duration : 53 min 58 s
    Bit rate mode : Constant
    Bit rate : 640 kb/s
    Channel(s) : 6 channels
    Channel positions : Front: L C R, Side: L R, LFE
    Sampling rate : 48.0 kHz
    Frame rate : 31.250 FPS (1536 SPF)
    Bit depth : 16 bits
    Compression mode : Lossy
    Stream size : 247 MiB (5%)
    Language : English
    Service kind : Complete Main
    Default : No
    Forced : No
    
     
    • СКАЧАТЬ MAGNET
      (192,5 КБ, 90 Просмотров, Размер: 38,3 ГБ, Сидеры: 2, Личеры: 0, Скачали: 1) Золото
    • Загрузка...
    Последнее редактирование: 25 июн 2018
  2. Зомби
    Зомби
    а можно ссылку на первый сезон?
    12 июл 2018
    1. Devzz
      Devzz
      Первый сезон не делали, увы(
      16 июл 2018