1. Сайт переделан с 0. Надеемся вы оцените возросшее удобство при использовании. Если вы регистрировались ранее - повторно регистрироваться не нужно. Почти все ваши данные были перенесены. Если не помните пароль - воспользуйтесь восстановлением. Для тех кто заходил через вк - просто зайдите еще раз. Все раздачи со временем вернутся, пока добавляем новые и возвращаем старые. 

    Скрыть объявление

Королева Сахара / Queen Sugar / Сезон: 3 / Серии: 1-6 (16) [WEB-DL 1080p]

Тема в разделе "Королева Сахара", создана пользователем Devzz, 11 июл 2018.

  1. Devzz

    Devzz Administrator Команда форума

    Сообщения:
    134
    Королева Сахара / Queen Sugar
    3 сезон 1-6 серии

    Год выпуска: 2018
    Страна: США
    Жанр: драма, мелодрама
    Продолжительность: 16 х ~ 40-50 мин
    Озвучание: профессиональное многоголосое закадровое (FocusStudio)
    Субтитры
    : нет

    Режиссеры: Кэт Кэндлер, Димэйн Дэвис, Нима Барнетт и другие

    В ролях: Рутина Уэсли, Дон-Лиэн Гарднер, Кофи Сирибо, Омар Дж. Дорси, Николас Л. Эш, Дондре Уитфилд, Этан Хатчисон, Тина Лиффорд, Тимон Кайл, Бьянка Лоусон и др

    Описание: В центре сюжета находятся сёстры Борделон, Нова — журналист и видный активист Нового Орлеана, и Чарли, которая возвращается в Новый Орлеан из Лос-Анджелеса вместе с сыном-подростком, оставляя привычную жизнь, чтобы унаследовать от недавно умершего отца плантацию в 800 акров сахарного тростника.


    Релиз: [​IMG]



    Качество: WEB-DL 1080p
    Формат: MKV
    Видео: 1920x1080 (16:9), 23.976 fps, MPEG-4 AVC ~9000 kbps, 0.18 bit/pixel
    Аудио Rus: 48 kHz, AC3 Dolby Digital, 3/2 (L,C,R,l,r) + LFE ch, 640.00 kbps
    Аудио Eng: 48 kHz, AC3 Dolby Digital, 3/2 (L,C,R,l,r) + LFE ch, 640.00 kbps

    General
    Unique ID : 190628506738556127062503311132410135763 (0x8F69B7062FF3D22EBE3DFA93E26644D3)
    Complete name : Queen.Sugar.S03E01.WEB-DL.1080p.FocusStudio.mkv
    Format : Matroska
    Format version : Version 4 / Version 2
    File size : 3.77 GiB
    Duration : 42 min 22 s
    Overall bit rate mode : Variable
    Overall bit rate : 12.7 Mb/s
    Movie name : Queen Sugar 3x01 @ FocusStudio
    Encoded date : UTC 2018-07-10 15:08:19
    Writing application : mkvmerge v8.1.0 ('Psychedelic Postcard') 64bit
    Writing library : libebml v1.3.1 + libmatroska v1.4.2

    Video
    ID : 1
    Format : AVC
    Format/Info : Advanced Video Codec
    Format profile : High@L4
    Format settings : CABAC / 4 Ref Frames
    Format settings, CABAC : Yes
    Format settings, ReFrames : 4 frames
    Codec ID : V_MPEG4/ISO/AVC
    Duration : 42 min 22 s
    Bit rate mode : Variable
    Bit rate : 11.2 Mb/s
    Maximum bit rate : 15.0 Mb/s
    Width : 1 920 pixels
    Height : 1 080 pixels
    Display aspect ratio : 16:9
    Frame rate mode : Constant
    Frame rate : 23.976 (24000/1001) FPS
    Color space : YUV
    Chroma subsampling : 4:2:0
    Bit depth : 8 bits
    Scan type : Progressive
    Bits/(Pixel*Frame) : 0.225
    Stream size : 3.32 GiB (88%)
    Default : Yes
    Forced : No
    Color range : Limited
    Color primaries : BT.709
    Transfer characteristics : BT.709
    Matrix coefficients : BT.709

    Audio #1
    ID : 2
    Format : AC-3
    Format/Info : Audio Coding 3
    Codec ID : A_AC3
    Duration : 42 min 22 s
    Bit rate mode : Constant
    Bit rate : 640 kb/s
    Channel(s) : 6 channels
    Channel positions : Front: L C R, Side: L R, LFE
    Sampling rate : 48.0 kHz
    Frame rate : 31.250 FPS (1536 SPF)
    Bit depth : 16 bits
    Compression mode : Lossy
    Stream size : 194 MiB (5%)
    Title : MVO FocusStudio
    Language : Russian
    Service kind : Complete Main
    Default : Yes
    Forced : No

    Audio #2
    ID : 3
    Format : AC-3
    Format/Info : Audio Coding 3
    Codec ID : A_AC3
    Duration : 42 min 22 s
    Bit rate mode : Constant
    Bit rate : 640 kb/s
    Channel(s) : 6 channels
    Channel positions : Front: L C R, Side: L R, LFE
    Sampling rate : 48.0 kHz
    Frame rate : 31.250 FPS (1536 SPF)
    Bit depth : 16 bits
    Compression mode : Lossy
    Stream size : 194 MiB (5%)
    Language : English
    Service kind : Complete Main
    Default : No
    Forced : No
     
    • СКАЧАТЬ MAGNET
      (114,5 КБ, 13 Просмотров, Размер: 22,8 ГБ, Сидеры: 1, Личеры: 0, Скачали: 0) Золото
    • Загрузка...