1. Сайт переделан с 0. Надеемся вы оцените возросшее удобство при использовании. Если вы регистрировались ранее - повторно регистрироваться не нужно. Почти все ваши данные были перенесены. Если не помните пароль - воспользуйтесь восстановлением. Для тех кто заходил через вк - просто зайдите еще раз. Все раздачи со временем вернутся, пока добавляем новые и возвращаем старые. 

    Скрыть объявление

Острые козырьки / Peaky Blinders / Сезон: 4 / Серии: 1-6 (6) [WEB-DL 1080p]

Тема в разделе "Острые козырьки", создана пользователем Dio, 8 май 2016.

  1. Dio

    Dio Administrator

    Сообщения:
    155
    Острые козырьки / Peaky Blinders
    4 сезон

    Год выпуска: 2017
    Страна: Великобритания
    Жанр: драма, криминал
    Продолжительность: 6 х ~ 58 мин
    Озвучание: профессиональное многоголосое закадровое, без цензуры (FocusStudio)
    Cубтитры
    : нет

    Режиссёр: Тим Милантс

    В ролях: Киллиан Мерфи, Том Харди, Пол Андерсон, Иддо Голдберг, Хелен МакКрори, Сэм Нилл, Аннабелль Уоллис, Джо Коул, Элфи Эванс-Мис, Джек Хартли, Кевин Меткалф


    Описание: Британский сериал о криминальном мире Бирмингема 20-х годов прошлого века, в котором многолюдная семья Шелби стала одной из самых жестоких и влиятельных гангстерских банд послевоенного времени. Фирменным знаком группировки, промышлявшей грабежами и азартными играми, стали зашитые в козырьки лезвия.


    Релиз: [​IMG]


    Качество: WEB-DL
    Формат: MKV
    Видео: 1920x1080, 25 fps, MPEG-4 AVC ~4000 kbps avg, 0.060 bit/pixel
    Аудио Rus: 48 kHz, AC3, 6 ch, 384 kbps
    Аудио Eng: 48 kHz, AC3, 6 ch, 384 kbps

    Код:
    General
    Unique ID                   : 202109134744563519950714291200447775874 (0x980CCDAFCEFA7601B8A425004B588482)
    Complete name               : Peaky.Blinders.S04E01.WEB-DL.1080p.FocusStudio.mkv
    Format                      : Matroska
    Format version              : Version 4 / Version 2
    File size                   : 1.72 GiB
    Duration                    : 58 min 12 s
    Overall bit rate mode       : Variable
    Overall bit rate            : 4 239 kb/s
    Movie name                  : Peaky Blinders 4x01 @ FocusStudio
    Encoded date                : UTC 2017-12-31 09:53:01
    Writing application         : mkvmerge v8.1.0 ('Psychedelic Postcard') 64bit
    Writing library             : libebml v1.3.1 + libmatroska v1.4.2
    
    Video
    ID                          : 1
    Format                      : AVC
    Format/Info                 : Advanced Video Codec
    Format profile              : Main@L4
    Format settings             : CABAC / 3 Ref Frames
    Format settings, CABAC      : Yes
    Format settings, ReFrames   : 3 frames
    Codec ID                    : V_MPEG4/ISO/AVC
    Duration                    : 58 min 12 s
    Bit rate mode               : Variable
    Bit rate                    : 3 480 kb/s
    Maximum bit rate            : 5 220 kb/s
    Width                       : 1 920 pixels
    Height                      : 1 080 pixels
    Display aspect ratio        : 16:9
    Frame rate mode             : Constant
    Frame rate                  : 25.000 FPS
    Color space                 : YUV
    Chroma subsampling          : 4:2:0
    Bit depth                   : 8 bits
    Scan type                   : Progressive
    Bits/(Pixel*Frame)          : 0.067
    Stream size                 : 1.38 GiB (80%)
    Writing library             : x264 core 148 r2714 2daf636
    Encoding settings           : cabac=1 / ref=3 / deblock=1:0:0 / analyse=0x1:0x111 / me=umh / subme=10 / psy=1 / psy_rd=1.00:0.00 / mixed_ref=1 / me_range=24 / chroma_me=1 / trellis=2 / 8x8dct=0 / cqm=0 / deadzone=21,11 / fast_pskip=1 / chroma_qp_offset=-2 / threads=8 / lookahead_threads=1 / sliced_threads=0 / nr=0 / decimate=1 / interlaced=0 / bluray_compat=0 / stitchable=1 / constrained_intra=0 / bframes=2 / b_pyramid=0 / b_adapt=2 / b_bias=0 / direct=3 / weightb=1 / open_gop=0 / weightp=2 / keyint=50 / keyint_min=26 / scenecut=0 / intra_refresh=0 / rc_lookahead=50 / rc=2pass / mbtree=1 / bitrate=3480 / ratetol=1.0 / qcomp=0.50 / qpmin=6 / qpmax=51 / qpstep=4 / cplxblur=20.0 / qblur=0.5 / vbv_maxrate=5220 / vbv_bufsize=6960 / nal_hrd=vbr / filler=0 / ip_ratio=1.40 / aq=1:1.00
    Default                     : Yes
    Forced                      : No
    
    Audio #1
    ID                          : 2
    Format                      : AC-3
    Format/Info                 : Audio Coding 3
    Codec ID                    : A_AC3
    Duration                    : 58 min 12 s
    Bit rate mode               : Constant
    Bit rate                    : 384 kb/s
    Channel(s)                  : 6 channels
    Channel positions           : Front: L C R, Side: L R, LFE
    Sampling rate               : 48.0 kHz
    Frame rate                  : 31.250 FPS (1536 SPF)
    Bit depth                   : 16 bits
    Compression mode            : Lossy
    Stream size                 : 160 MiB (9%)
    Title                       : MVO FocusStudio
    Language                    : Russian
    Service kind                : Complete Main
    Default                     : Yes
    Forced                      : No
    
    Audio #2
    ID                          : 3
    Format                      : AC-3
    Format/Info                 : Audio Coding 3
    Codec ID                    : A_AC3
    Duration                    : 58 min 12 s
    Bit rate mode               : Constant
    Bit rate                    : 384 kb/s
    Channel(s)                  : 6 channels
    Channel positions           : Front: L C R, Side: L R, LFE
    Sampling rate               : 48.0 kHz
    Frame rate                  : 31.250 FPS (1536 SPF)
    Bit depth                   : 16 bits
    Compression mode            : Lossy
    Stream size                 : 160 MiB (9%)
    Language                    : English
    Service kind                : Complete Main
    Default                     : No
    Forced                      : No
    
     
    • СКАЧАТЬ MAGNET
      (99 КБ, 92 Просмотров, Размер: 9,8 ГБ, Сидеры: 1, Личеры: 0, Скачали: 1) Золото
    • Загрузка...
    Последнее редактирование модератором: 31 дек 2017